Category
Recent News
Category: Tutorial
Download Now

Coursera - Early Renaissance Architecture in Italy: from Alberti to Bramante

Coursera - Early Renaissance Architecture in Italy: from Alberti to Bramante
Sapienza University of Rome with Francesco Paolo Fiore

WEBRip | English | MP4 | 960 x 540 | AVC ~137 kbps | 29.970 fps
AAC | 123 Kbps | 44.1 KHz | 2 channels | Subs: English (.srt) | 04:26:52 | 450 MB
Genre: eLearning Video / Art, Architecture, and Design

Through some of the most celebrated examples of the early Renaissance architecture and the most important statements of the early Renaissance theories, the course will examine problems of the architectural spaces, technology and forms looking to the antiquity in the XV century in Italy.
When Leon Battista Alberti completed his treatise about architecture around 1452, his initial study of texts and monuments of Antiquity was based on mathematics and geometry as a reflection of nature, with a belief that architecture was a part of a man's civil duty.

This attitude would condition the architectural principles of the early Renaissance and architects did not apply themselves to textual imitations of individual antique monuments. In Florence, they preferred to accept and articulate the rational "system" of Brunelleschi, either transforming it, like Alberti, or breaking with it in a return to tradition, like Michelozzo. In north and south Italy, the battle between innovation and resistance was increasing in strength and substance because it not only encompassed immediate questions of decorative language (antique forms and architectural orders) but also the problems of conceiving and constructing an architecture that could replace the gothic structural membering with the continuous masonry of the Antiquity. At first, the new decoration was frequently adapted to the existing architectural system, and only later did it find a partner in the different spatial and structural conceptions that descended from Florentine exempla. The tendency to see norms and models in antique architecture, which must be rigidly replicated, first affirmed itself at the beginning of the XVI century in Rome.
General
Complete name               : 01_Early_Renaissance_Architecture_in_Italy-_from_Alberti_to_Bramante_6.1_-_Bramante_from_Urbino.mp4
Format

: MPEG-4
Format profile              : Base Media
Codec ID                    : isom
File size                   : 16.1 MiB
Duration                    : 8mn 24s
Overall bit rate mode       : Variable
Overall bit rate            : 268 Kbps
Writing application         : Lavf55.10.100

Video
ID

    : 1
Format

: AVC
Format/Info                 : Advanced Video Codec
Format profile              :
Format settings, CABAC      : Yes
Format settings, ReFrames   : 4 frames
Codec ID                    : avc1
Codec ID/Info               : Advanced Video Coding
Duration                    : 8mn 24s
Bit rate                    : 137 Kbps
Width

: 960 pixels
Height

: 540 pixels
Display aspect ratio        : 16:9
Frame rate mode             : Constant
Frame rate                  : 29.970 fps
Color space                 : YUV
Chroma subsampling          : 4:2:0
Bit depth                   : 8 bits
Scan type                   : Progressive
Bits/(Pixel*Frame)          : 0.009
Stream size                 : 8.21 MiB (51%)
Writing library             : x264 core 129 r2230 1cffe9f
Encoding settings           : cabac=1 / ref=3 / deblock=1:0:0 / analyse=0x1:0x111 / me=hex / subme=7 / psy=1 / psy_rd=1.00:0.00 / mixed_ref=1 / me_range=16 / chroma_me=1 / trellis=1 / 8x8dct=0 / cqm=0 / deadzone=21,11 / fast_pskip=1 / chroma_qp_offset=-2 / threads=12 / lookahead_threads=2 / sliced_threads=0 / nr=0 / decimate=1 / interlaced=0 / bluray_compat=0 / constrained_intra=0 / bframes=3 / b_pyramid=2 / b_adapt=1 / b_bias=0 / direct=1 / weightb=1 / open_gop=0 / weightp=2 / keyint=250 / keyint_min=25 / scenecut=40 / intra_refresh=0 / rc_lookahead=40 / rc=crf / mbtree=1 / crf=28.0 / qcomp=0.60 / qpmin=0 / qpmax=69 / qpstep=4 / ip_ratio=1.40 / aq=1:1.00
Language                    : English

Audio
ID

    : 2
Format

: AAC
Format/Info                 : Advanced Audio Codec
Format profile              : LC
Codec ID                    : 40
Duration                    : 8mn 24s
Bit rate mode               : Variable
Bit rate                    : 123 Kbps
Maximum bit rate            : 128 Kbps
Channel(s)                  : 2 channels
Channel positions           : Front: L R
Sampling rate               : 44.1 KHz
Compression mode            : Lossy
Stream size                 : 7.37 MiB (46%)
Language                    : English


Coursera - Early Renaissance Architecture in Italy: from Alberti to Bramante

Coursera - Early Renaissance Architecture in Italy: from Alberti to Bramante
Coursera - Early Renaissance Architecture in Italy: from Alberti to Bramante
Coursera - Early Renaissance Architecture in Italy: from Alberti to Bramante

DOWNLOAD:


Direct Download


Author: badshah10Comments (0)
Go Back...
Full name:
E-Mail:
Security code:
Include security image CAPCHA.
update code
Enter security code: